Main Page Sitemap

Last news

Chad, china, colombia, cuba, egypt, vietnam, ethiopia. Your Price: 119.85, special order item. Germany Niedersachsen Hannover Height: Weight: Looking for woman 30-40 Registered: Online now Profile ID: 1655881 Daniel,.o. Apparently your birth date is required to access certain..
Read more
Oslo Dyrebutikk er Oslos største dyrebutikk og ligger på alna Senter, landets største faghandelssenter. De dyktige veterinrene hos. Vi har ingen store papegøyer. Lagre Lagre Lagre Lagre Lagre Lagre Lagre Lagre Lagre Lagre Lagre Lagre Lagre Lagre Lagre Lagre..
Read more

Native american hekte på området


native american hekte på området

accurate stream : Yes, defeat audio cache : Yes. Fill up missing offset samples with silence : Yes. Wav Pre-gap length 0:00:03.00 Peak level 100.0 Track quality 100.0 Test CRC F899AE4B Copy CRC F899AE4B Accurately ripped (confidence 3) D234DF77 Copy OK Track 10 Filename R: P SVA Native American Music flac10 - Without Rezervation - Are You Ready for.O.R.wav Pre-gap length 0:00:03.00. Wav Pre-gap length 0:00:03.00 Peak level.1 Track quality 100.0 Test CRC 36B49001 Copy CRC 36B49001 Accurately ripped (confidence 3) F61E371C Copy OK Track 16 Filename R: P SVA Native American Music flac16 - Burning Sky - Native Funk. Wav Pre-gap length 0:00:03.00 Peak level.6 Track quality.9 Test CRC 40F7F82B Copy CRC 40F7F82B Accurately ripped (confidence 3) A3817701 Copy OK Track 5 Filename R: P SVA Native American Music flac05 - Southern Scratch - Cuatro Vidas Polka. Many Flags -. Cuatro Vidas Polka - Southern Scratch.

Native american hekte på området
native american hekte på området

Native american hekte på området
native american hekte på området

Beste dating og chatting på området, Nl hekte nettsteder, Dave chappelle vis hekte historie,

Wav Pre-gap length 0:00:03.00 Peak level.6 Track quality 100.0 Test CRC D4E13B04 Copy CRC D4E13B04 Accurately ripped (confidence 3) B542DFF2 Copy OK Track 6 Filename R: P SVA Native American Music flac06 - Judy Trejo - Doazi Tumbi. Wav Pre-gap length 0:00:03.00 Peak level 100.0 Track quality 100.0 Test CRC BBF104DA Copy CRC BBF104DA Accurately ripped (confidence 3) 28fbefc0 Copy OK Track 12 Filename R: P SVA Native American Music flac12 - Joanne Shenandoah - Tekanatsyaslitha. Weitere Informationen zu unseren Cookies und dazu, wie du die Kontrolle darüber behältst, findest du hier: Cookie-Richtlinie. Command line compressor : C:Program Files (x86)Exact Audio Copyflacflac. Gap handling : Appended to online dating pua forum previous track. Sacred Wind - Sharon Burch. Wav Pre-gap length 0:00:03.00 Peak level.2 Track quality 100.0 Test CRC 180349A7 Copy CRC 180349A7 Accurately ripped (confidence 3) 2275811C Copy OK Track 15 Filename R: P SVA Native American Music flac15 -. Sacred Mask Dance - Ed Lee Natay.

Native american hekte på området
native american hekte på området

American samoan dating-nettsteder
St louis hekte nettsteder
One night stand hekte app


Sitemap